Changed Domain Please Use Our New Domain https://7starhd.cam 


Download Here

                 


Watch Now

<h1 style=”text-align: center;”><span style=”color: #ffff00;”><strong>Agnee 2 (2015) Bengali Movie 720p.mp4</strong></span></h1>
<p style=”text-align: center;”><img class=”aligncenter” src=”https://i.ibb.co/tQFMWrR/poster.jpg” height=”550″ /></p>

<h1 style=”text-align: center;”><span style=”color: #00ff00;”><a style=”color: #00ff00;” href=”https://www.imdb.com/tt4833384/”><strong>IMDB Link</strong></a></span></h1>
<p style=”text-align: center;”><img class=”aligncenter” src=”https://i.ibb.co/1rwSwG5/giphy-1.gif” width=”154″ height=”43″ /></p>
<p style=”text-align: center;”>General
Complete name : Agnee 2 (2015) Bengali Movie.mp4
Format : MPEG-4
Format profile : Base Media / Version 2
Codec ID : mp42 (mp42)
File size : 685 MiB
Duration : 2 h 14 min
Overall bit rate mode : Constant
Overall bit rate : 710 kb/s
Codirector : codirector
Production studio : studio</p>
<p style=”text-align: center;”>Video
Format : MPEG-4 Visual
Format settings, BVOP : Yes
Format settings, QPel : No
Format settings, GMC : No warppoints
Format settings, Matrix : Default (H.263)
Codec ID : 20
Duration : 2 h 14 min
Bit rate mode : Constant
Bit rate : 512 kb/s
Width : 720 pixels
Height : 300 pixels
Display aspect ratio : 2.40:1
Frame rate mode : Constant
Frame rate : 50.000 FPS
Color space : YUV
Bit depth : 8 bits
Scan type : Progressive
Compression mode : Lossy
Bits/(Pixel*Frame) : 0.047
Stream size : 494 MiB (72%)</p>
<p style=”text-align: center;”>Audio
Format : AAC
Format/Info : Advanced Audio Codec
Format profile : LC
Codec ID : 40
Duration : 2 h 14 min
Bit rate mode : Constant
Bit rate : 192 kb/s
Channel(s) : 2 channels
Channel positions : Front: L R
Sampling rate : 44.1 kHz
Frame rate : 43.066 FPS (1024 SPF)
Compression mode : Lossy
Stream size : 185 MiB (27%)
Title : Stereo
Language : English
Default : Yes</p>
<p style=”text-align: center;”><img class=”aligncenter” src=”https://i.ibb.co/yRNYm3f/skin.gif” width=”220″ height=”40″ /></p>
<p style=”text-align: center;”><img class=”aligncenter” src=”https://i.ibb.co/PYkPW1D/1.jpg” width=”491″ height=”327″ />
<img class=”aligncenter” src=”https://i.ibb.co/Xp562DW/2.jpg” width=”495″ height=”330″ />
<img class=”aligncenter” src=”https://i.ibb.co/jvLN7rF/3.jpg” width=”501″ height=”334″ />
<img class=”aligncenter” src=”https://i.ibb.co/ccd00hc/4.jpg” width=”498″ height=”332″ />
<img class=”aligncenter” src=”https://i.ibb.co/WvfGPj8/5.jpg” width=”498″ height=”332″ />
<img class=”aligncenter” src=”https://i.ibb.co/j4psYRZ/6.jpg” width=”502″ height=”334″ />
<img class=”aligncenter” src=”https://i.ibb.co/7jg76vp/7.jpg” width=”504″ height=”336″ />
<img class=”aligncenter” src=”https://i.ibb.co/W5WJ1hk/8.jpg” width=”506″ height=”337″ /></p>
<p style=”text-align: center;”><img class=”aligncenter” src=”https://i.ibb.co/gdTVWZD/d5c5cd25be7c89bc3da9fe7ffa702564.gif” width=”252″ height=”42″ /></p>

<h2 style=”text-align: center;”><span style=”color: #00ff00;”><a style=”color: #00ff00;” href=”https://www.indishare.me/o8fx64v19egi”><strong>indishare Link</strong></a></span></h2>
<h2 style=”text-align: center;”><span style=”color: #00ff00;”><a style=”color: #00ff00;” href=”https://thefileslocker.com/d5v1xl1muofn.html”><strong>TheFilesLocker Link</strong></a></span></h2>
<h2 style=”text-align: center;”><span style=”color: #00ff00;”><a style=”color: #00ff00;” href=”https://megaup.net/2M4cv/Agnee_2_(2015)_Bengali_Movie.mp4″><strong>MegaUp Link</strong></a></span></h2>
<h2 style=”text-align: center;”><span style=”color: #00ff00;”><a style=”color: #00ff00;” href=”https://openload.co/f/3JhhcV_Yang/Agnee_2_%282015%29_Bengali_Movie.mp4″><strong>OpenLoad Link</strong></a></span></h2>
<h2 style=”text-align: center;”><span style=”color: #00ff00;”><a style=”color: #00ff00;” href=”https://userscloud.com/gnkr9usgn6ng”><strong>UserscLoud Link</strong></a></span></h2>
<h2 style=”text-align: center;”><span style=”color: #00ff00;”><a style=”color: #00ff00;” href=”https://clicknupload.org/mlo2byawl4ju”><strong>ClicknupLoad Link</strong></a></span></h2>
<h2 style=”text-align: center;”><span style=”color: #00ff00;”><a style=”color: #00ff00;” href=”https://bdupload.info/drqx63yqel1m”><strong>BDupload Link</strong></a></span></h2>
<h2 style=”text-align: center;”><span style=”color: #00ff00;”><a style=”color: #00ff00;” href=”http://uppom.live/p4c7jlhoazre/Agnee_2_(2015)_Bengali_Movie.mp4.html”><strong>UpPom Link</strong></a></span></h2>
<h2 style=”text-align: center;”><span style=”color: #00ff00;”><a style=”color: #00ff00;” href=”https://uploadbuzz.org/pxexpa0ow20e”><strong>UploadBuzz Link</strong></a></span></h2>
<p style=”text-align: center;”><img class=”aligncenter” src=”https://inteha2018.files.wordpress.com/2018/05/1gb.png” width=”183″ height=”183″ /></p>
<p style=”text-align: center;”><img class=”aligncenter” src=”https://i.ibb.co/f9L2rpJ/giphy.gif” /></p>

Note: If you Can’t See the links Please Use VPN or any proxy thanks


Download Here

                 


Watch Now


Post Views:
42

LEAVE A REPLY

Please enter your comment!
Please enter your name here