Changed Domain Please Use Our New Domain https://7starhd.work 


Download Here

                 


Watch Now

General
Complete name : Tiger Number One – Bangla Full Movie.mp4
Format : MPEG-4
Format profile : Base Media / Version 2
Codec ID : mp42 (mp42)
File size : 677 MiB
Duration : 2 h 57 min
Overall bit rate mode : Constant
Overall bit rate : 532 kb/s
Codirector : codirector
Production studio : studio

Video
Format : MPEG-4 Visual
Format settings, BVOP : Yes
Format settings, QPel : No
Format settings, GMC : No warppoints
Format settings, Matrix : Default (H.263)
Codec ID : 20
Duration : 2 h 57 min
Bit rate mode : Constant
Bit rate : 384 kb/s
Width : 540 pixels
Height : 250 pixels
Display aspect ratio : 2.2:1
Frame rate mode : Constant
Frame rate : 25.000 FPS
Color space : YUV
Bit depth : 8 bits
Scan type : Progressive
Compression mode : Lossy
Bits/(Pixel*Frame) : 0.114
Stream size : 489 MiB (72%)

Audio
Format : AAC
Format/Info : Advanced Audio Codec
Format profile : LC
Codec ID : 40
Duration : 2 h 57 min
Bit rate mode : Constant
Bit rate : 144 kb/s
Channel(s) : 2 channels
Channel positions : Front: L R
Sampling rate : 44.1 kHz
Frame rate : 43.066 FPS (1024 SPF)
Compression mode : Lossy
Stream size : 182 MiB (27%)
Title : Stereo
Language : English








Note: If you Can’t See the links Please Use VPN or any proxy thanks


Download Here

                 


Watch Now


Post Views:
5

LEAVE A REPLY

Please enter your comment!
Please enter your name here